Explosion d’une bombe à eau

http://eteignezvotreordinateur.kinsta.cloud/wp-content/uploads/2010/05/93b49a43-bombe-11.jpg

Slow Motion

Toujours sympa de voir des vidéos au ralenti, le coup de la bombe à eau est connu mais très agréable à regarder, la tête du mec n’est pas mal non plus…

 

0 0 vote
Évaluation de l'article

Noter la qualité du post

S’abonner
Notifier de
guest
12 Commentaires
Le plus populaire
plus récent plus ancien
Inline Feedbacks
View all comments
Mac
Mac
25 mai 2010 16 h 38 min

Excellent =)

Fichtre
Fichtre
25 mai 2010 16 h 46 min

Avec mon Casio Ex-F1 je vous en fait autant que vous voulez 😉

bob
bob
25 mai 2010 17 h 09 min

fichtre tu veux une médaille ?

tbld
tbld
25 mai 2010 17 h 15 min

enorme

Park
25 mai 2010 17 h 51 min

Raaaah quand les morceaux du ballon….c’est splendide
Fichtre > Sauf que toi la résolution sera en 336 x 96 pixels

Fichtre
Fichtre
25 mai 2010 18 h 01 min

@Park

Là c’est combien à ton avis ? Parce que j’ai pas l’impression que la résolution soit aussi incroyable que ça …

J’aimerais bien faire un court-métrage mi-HD / mi-HighSpeed mais je ne sais pas ce que ça pourrait donner, sur Vimeo par exemple (parce que même pas la peine d’essayer sur un écran de plus de 20″)

Park
25 mai 2010 18 h 14 min

Fichtre
Ça a déjà l’air d’être du 640*480 MINIMUM….ce qui (je crois) ne ce fait pas dans les appareils grand public avec une aussi grande cadence d’img/s…Dommage de ne pas avoir les référenceS du camescope.

Pour ceux qui ont une caméra qui fait du 60img/s il y a moyen d’avoir du slow motion d’assez bonne qualité grâce au plug-in TWIXTOR pour after effects et première pro.

http://www.youtube.com/user/revisionfx#p/a/u/0/20Smtrzt3m4

steph
steph
25 mai 2010 20 h 10 min

On est nul, nous les êtres humains ! le ballon est totalement éclaté et le gars il bouge même po !!!!!
Spiderman il fait mieux quand même !

NoBlaze
NoBlaze
25 mai 2010 21 h 36 min

http://vimeo.com/4167288

la vous allez juste halluciner….

Fichtre
Fichtre
25 mai 2010 23 h 41 min

Dingue la SprintCam !

Fichtre
Fichtre
25 mai 2010 23 h 50 min

@Park

Le Ex-F1 fait du 300img/s en 512 × 384, après pour le 600 et le 1200 ça se dégrade …

intel
intel
26 mai 2010 8 h 49 min

là c’est du flash 480×360
VP6
Duration : 1mn 20s
Bit rate : 377 Kbps
Width : 480 pixels
Height : 360 pixels
Display aspect ratio : 4:3
Frame rate : 29.970 fps
Bits/(Pixel*Frame) : 0.073
Stream size : 3.69 MiB (84%)

Audio
Format : MPEG Audio
Format version : Version 1
Format profile : Layer 3
Duration : 1mn 20s
Bit rate mode : Constant
Bit rate : 64.0 Kbps
Channel(s) : 2 channels
Sampling rate : 44.1 KHz
Resolution : 16 bits
Video delay : 17ms
Stream size : 627 KiB (14%)
Writing library : LAMEUUULAME3.96.1